Massengeschmack.TV Shop

Folge 368: Mombasa

Pasch-TV Folge 368. Hier kann darüber diskutiert werden!

Ihr wolltet es, also bekommt Ihr es: Wir spielen Mombasa! Das Spiel gilt selbst unter Brettspiel-Freaks als sehr kompliziert und anspruchsvoll. Zum Glück haben !CF, Julian, Holger und Mario den kompetenten Friedemann als Berater an ihrer Seite, um das Spiel durchzustehen. Und siehe da: Je mehr die Spieler drin sind, desto mehr steigt auch die Lust…

5 „Gefällt mir“

Irgendwie wärs tierisch lustig, wenn nach all den Jahren „Wann kommt Mombasa“ jetzt diese Folge niemand ansehen würde :stuck_out_tongue:

Oha, jetzt sehe ich erst, 6,5 Stunden :flushed:

4 „Gefällt mir“

Was sind denn das für Fake News?! Wie kommt man denn darauf, dass ich davon überfordert wäre?!
Da ich es schon mehrfach selbst gespielt habe und für gelungen halte, wundert mich diese Aussage etwas.

6 „Gefällt mir“

Oh entschuldige :smiley: Ich wollte nicht an deiner Ehre als Brettspieler kratzen. Ich hatte es so verstanden, dass du selbst nicht der größte Fan bist und es ziemlich kompliziert findest.

4 „Gefällt mir“

Da fallen James Pond vor Ärger auch noch die restlichen Haare aus.

9 „Gefällt mir“

Klar ist es ein komplexes Spiel, das ich nicht mal eben auspacken kann, ohne nochmal einen Blick in die Anleitung werfen zu müssen. Auch richtig ist, dass es andere Strategiespiele gibt, die ich noch lieber spiele. Aber das Wort „Überforderung“ würde mir nie einfallen. Ich wäre jederzeit bei einer Partie dabei, wenn jemand das mit mir spielen möchte. Aufgrund des Zeitumfangs kommt es bei uns halt eher selten auf den Tisch.

4 „Gefällt mir“

Okay, ich nehme alles zurück und behaupte das Gegenteil :v:

3 „Gefällt mir“

Die FullHD Version soll 17GB groß sein, die SD Variante aber 22GB?
Ist das so korrekt? Gibts in der SD Variante mehr Material zu sehn oder warum ist die größer?

2 „Gefällt mir“

6,5h!
Das wird ne lange Nacht…

1 „Gefällt mir“

So, Feierabend. Oh, das neue Adventskalendertürchen-Video ist da! :star_struck:

Schön. Schau ich mir gleich an, bevor ich in die abendlichen Bundesligaspiele schalte. :face_with_hand_over_mouth:

2 1/2 Stunden Zeit für Social Media, Massengeschmack und Co. Nebenbei noch Abendbrot essen. Hört sich nach nem guten Plan an. :relieved:

** klick auf das Momabasa-Video ** :smirk:

Laufzeit: 6h 27Minuten !!! :astonished:

4 „Gefällt mir“

Stimmt!

1 „Gefällt mir“

Versteh ich grad nicht.

1 „Gefällt mir“

what

4 „Gefällt mir“

Ich wollte an dieser Stelle ein dickes Lob und Dank an Friedemann aussprechen! vielen Dank für die Geduld, um die ich ihn beneide :grin:

3 „Gefällt mir“

Die Bitrate ist zu hoch bei der SD Version

General
Complete name                            : /home/mint/Schreibtisch/NAS/MG/pasch368.mp4
Format                                   : MPEG-4
Format profile                           : Base Media / Version 2
Codec ID                                 : mp42 (mp42/iso2/avc1/mp41)
File size                                : 22.1 GiB
Duration                                 : 6 h 27 min
Overall bit rate                         : 8 149 kb/s
Encoded date                             : UTC 2021-12-14 02:30:04
Tagged date                              : UTC 2021-12-14 02:30:04
Writing application                      : HandBrake 1.4.2 2021100300

Video
ID                                       : 1
Format                                   : AVC
Format/Info                              : Advanced Video Codec
Format profile                           : Main@L4
Format settings                          : CABAC / 5 Ref Frames
Format settings, CABAC                   : Yes
Format settings, Reference frames        : 5 frames
Codec ID                                 : avc1
Codec ID/Info                            : Advanced Video Coding
Duration                                 : 6 h 27 min
Bit rate                                 : 8 006 kb/s
Width                                    : 768 pixels
Height                                   : 432 pixels
Display aspect ratio                     : 16:9
Frame rate mode                          : Constant
Frame rate                               : 25.000 FPS
Color space                              : YUV
Chroma subsampling                       : 4:2:0
Bit depth                                : 8 bits
Scan type                                : Progressive
Bits/(Pixel*Frame)                       : 0.965
Stream size                              : 21.7 GiB (98%)
Writing library                          : x264 core 163 r3059 b684ebe0
Encoded date                             : UTC 2021-12-14 02:30:04
Tagged date                              : UTC 2021-12-14 02:30:04
Color range                              : Limited
Color primaries                          : BT.709
Transfer characteristics                 : BT.709
Matrix coefficients                      : BT.709
Codec configuration box                  : avcC

Audio
ID                                       : 2
Format                                   : AAC LC
Format/Info                              : Advanced Audio Codec Low Complexity
Codec ID                                 : mp4a-40-2
Duration                                 : 6 h 27 min
Source duration                          : 6 h 27 min
Bit rate mode                            : Constant
Bit rate                                 : 136 kb/s
Channel(s)                               : 2 channels
Channel layout                           : L R
Sampling rate                            : 48.0 kHz
Frame rate                               : 46.875 FPS (1024 SPF)
Compression mode                         : Lossy
Stream size                              : 376 MiB (2%)
Source stream size                       : 376 MiB (2%)
Title                                    : Stereo
Language                                 : English
Default                                  : Yes
Alternate group                          : 1
Encoded date                             : UTC 2021-12-14 02:30:04
Tagged date                              : UTC 2021-12-14 02:30:04
mdhd_Duration                            : 23253868


die 720p version

General
Complete name                            : /home/mint/Schreibtisch/NAS/MG/pasch368HD.mp4
Format                                   : MPEG-4
Format profile                           : Base Media / Version 2
Codec ID                                 : mp42 (mp42/iso2/avc1/mp41)
File size                                : 5.08 GiB
Duration                                 : 6 h 27 min
Overall bit rate                         : 1 875 kb/s
Encoded date                             : UTC 2021-12-13 23:38:40
Tagged date                              : UTC 2021-12-13 23:38:40
Writing application                      : HandBrake 1.4.2 2021100300

Video
ID                                       : 1
Format                                   : AVC
Format/Info                              : Advanced Video Codec
Format profile                           : Main@L4
Format settings                          : CABAC / 5 Ref Frames
Format settings, CABAC                   : Yes
Format settings, Reference frames        : 5 frames
Codec ID                                 : avc1
Codec ID/Info                            : Advanced Video Coding
Duration                                 : 6 h 27 min
Bit rate                                 : 1 732 kb/s
Width                                    : 1 280 pixels
Height                                   : 720 pixels
Display aspect ratio                     : 16:9
Frame rate mode                          : Constant
Frame rate                               : 25.000 FPS
Color space                              : YUV
Chroma subsampling                       : 4:2:0
Bit depth                                : 8 bits
Scan type                                : Progressive
Bits/(Pixel*Frame)                       : 0.075
Stream size                              : 4.69 GiB (92%)
Writing library                          : x264 core 163 r3059 b684ebe0
Encoded date                             : UTC 2021-12-13 23:38:40
Tagged date                              : UTC 2021-12-13 23:38:40
Color range                              : Limited
Color primaries                          : BT.709
Transfer characteristics                 : BT.709
Matrix coefficients                      : BT.709
Codec configuration box                  : avcC

Audio
ID                                       : 2
Format                                   : AAC LC
Format/Info                              : Advanced Audio Codec Low Complexity
Codec ID                                 : mp4a-40-2
Duration                                 : 6 h 27 min
Source duration                          : 6 h 27 min
Bit rate mode                            : Constant
Bit rate                                 : 136 kb/s
Channel(s)                               : 2 channels
Channel layout                           : L R
Sampling rate                            : 48.0 kHz
Frame rate                               : 46.875 FPS (1024 SPF)
Compression mode                         : Lossy
Stream size                              : 376 MiB (7%)
Source stream size                       : 376 MiB (7%)
Title                                    : Stereo
Language                                 : English
Default                                  : Yes
Alternate group                          : 1
Encoded date                             : UTC 2021-12-13 23:38:40
Tagged date                              : UTC 2021-12-13 23:38:40
mdhd_Duration                            : 23253868


steht auch hier

2 „Gefällt mir“

Ich glaube, da wurde für die Bitrate in Handbrake eine 0 zu viel eingegeben. :joy:

Screenshot_20211215_200121

2 „Gefällt mir“

Na dann ist alles klar…alter Schwede, über 6Stunden.
Evtl sollte man solche Videos in 2 oder 3 Teile aufteilen, kann mir nämlich nicht vorstellen das jemand 6Std hintereinander reinzieht.

1 „Gefällt mir“

Ich dachte erst Holger zieht uns wieder über den Tisch ( :wink:) und jubelt uns eine reguläre Pasch TV-Folge als Adventstürchen unter. Nachdem ich aber die 6,5 Stunden gesehen habe, ist der Gedanke schnell verflogen. :sweat_smile:

4 „Gefällt mir“

Dank der Beteiligung von Julian ist es eine ganz besondere Folge und alles andere als regulär :slight_smile: Die 6,5 Stunden sind zusätzlicher Bonus. :slight_smile:

2 „Gefällt mir“

Zur Not ein Lesezeichen machen und die Minute in den Namen des Lesezeichens schreiben.

Ich hatte bei dem Spiel einen ziemlichen Mandela- Effekt. Ich war mir sicher, ihr hättet Mombasa irgendwann schon mal gespielt.

1 „Gefällt mir“